Last change 2020.03.01 14:20:52 / Time 2021.10.18 10:15:58

Music Database

My complete CD collection digitalized using differnent Linux tools in connection with remote CDDB databases.
These web pages give overview of content according to CDDB info.

cddb/b90e400f.txt

# xmcd CD database file generated by Grip 3.0.7
# 
# Track frame offsets:
#       150
#       15523
#       33292
#       47239
#       71035
#       86329
#       104491
#       121745
#       138888
#       156954
#       181534
#       204498
#       225461
#       241867
#       259938
# 
# Disc length: 3650 seconds
# 
# Revision: 1
# Submitted via: Grip 3.0.7
# 
DISCID=b90e400f
DTITLE=Various Artists / One Hit Wonders - CD7
DYEAR=
DGENRE=misc
DID3=12
TTITLE0=FR David / Words
TTITLE1=Imagination / Just An Illusion
TTITLE2=Righteira / Vamos a la Playa
TTITLE3=Ryan Paris / Dolce Vita
TTITLE4=Flying Pickets / Only You
TTITLE5=Opus / Live is life (live)
TTITLE6=Greg Kihn Band / Jeopardy
TTITLE7=Freez / IOU
TTITLE8=John Waite / Missing You
TTITLE9=Arcadia / Election day
TTITLE10=Power Station / Some Like It Hot
TTITLE11=Feargal Sharkey / A Good Heart
TTITLE12=Paul Hardcastle / Nineteen
TTITLE13=Boris Gardner / I Want To Wake Up With You
TTITLE14=Living In A Box / Living In A Box
EXTD=
EXTT0=
EXTT1=
EXTT2=
EXTT3=
EXTT4=
EXTT5=
EXTT6=
EXTT7=
EXTT8=
EXTT9=
EXTT10=
EXTT11=
EXTT12=
EXTT13=
EXTT14=
PLAYORDER=