Last change 2020.03.01 14:20:52 / Time 2021.12.01 15:24:15

Music Database

My complete CD collection digitalized using differnent Linux tools in connection with remote CDDB databases.
These web pages give overview of content according to CDDB info.

cddb/b90b5b0e.txt

# xmcd CD database file generated by Grip 3.3.1
# 
# Track frame offsets:
#       183
#       11803
#       25040
#       42510
#       64195
#       79020
#       91593
#       108183
#       128133
#       143018
#       157375
#       169525
#       185138
#       201953
# 
# Disc length: 2909 seconds
# 
# Revision: 1
# Submitted via: Grip 3.3.1
# 
DISCID=b90b5b0e
DTITLE=De Black Fooss / Panz Panz Panz
DYEAR=1987
DGENRE=misc
DID3=80
TTITLE0=Pänz, Pänz, Pänz
TTITLE1=Achterbahn
TTITLE2=Ming eetste Fründin
TTITLE3=Frankreich, Frankreich
TTITLE4=Dr. Pillemann
TTITLE5=Et Kackleed
TTITLE6=Indiander kriesche nit
TTITLE7=Dat Wasser vun Kölle
TTITLE8=Schwemmbad
TTITLE9=Huusmaster Kaczmarek
TTITLE10=De Mama kritt schon wieder e Kind
TTITLE11=a) Dä hellije Zinter Mätes; b) Äppel, Nöss und Marzipan
TTITLE12=En d'r Kayjass Nummer 0
TTITLE13=Heija popeija
EXTD=
EXTT0=
EXTT1=
EXTT2=
EXTT3=
EXTT4=
EXTT5=
EXTT6=
EXTT7=
EXTT8=
EXTT9=
EXTT10=
EXTT11=
EXTT12=
EXTT13=
PLAYORDER=