Last change 2020.03.01 14:20:52 / Time 2021.10.22 09:11:51

Music Database

My complete CD collection digitalized using differnent Linux tools in connection with remote CDDB databases.
These web pages give overview of content according to CDDB info.

cddb/b609e70d.txt

# xmcd CD database file generated by Grip 3.3.1
# 
# Track frame offsets:
#       150
#       14775
#       30943
#       45460
#       60334
#       75148
#       89894
#       103689
#       119982
#       135014
#       149930
#       163308
#       178956
# 
# Disc length: 2537 seconds
# 
# Revision: 4
# Submitted via: Grip 3.3.1
# 
DISCID=b609e70d
DTITLE=Traveling Wilburys / The Traveling Wilburys Collection 3
DYEAR=2007
DGENRE=folk
DID3=17
TTITLE0=She's My Baby
TTITLE1=Inside Out
TTITLE2=If You Belonged To Me
TTITLE3=The Devil's Been Busy
TTITLE4=7 Deadly Sins
TTITLE5=Poor House
TTITLE6=Where Were You Last Night?
TTITLE7=Cool Dry Place
TTITLE8=New Blue Moon
TTITLE9=You Took My Breath Away
TTITLE10=Wilbury Twist
TTITLE11=Nobody's Child
TTITLE12=Runaway
EXTD=
EXTT0=
EXTT1=
EXTT2=
EXTT3=
EXTT4=
EXTT5=
EXTT6=
EXTT7=
EXTT8=
EXTT9=
EXTT10=
EXTT11=Bonus Track
EXTT12=Bonus Track
PLAYORDER=