Last change 2020.03.01 14:20:52 / Time 2021.10.18 12:00:29

Music Database

My complete CD collection digitalized using differnent Linux tools in connection with remote CDDB databases.
These web pages give overview of content according to CDDB info.

cddb/b50ae10e.txt

# xmcd CD database file generated by Grip 3.3.1
# 
# Track frame offsets:
#       150
#       17055
#       29485
#       44090
#       59393
#       75833
#       90303
#       104363
#       119933
#       131003
#       144388
#       157628
#       173223
#       191510
# 
# Disc length: 2787 seconds
# 
# Revision: 3
# Submitted via: Grip 3.3.1
# 
DISCID=b50ae10e
DTITLE=Laban / Laban's Bedste
DYEAR=
DGENRE=misc
DID3=13
TTITLE0=Jeg Kan Li' Dig Alligevel
TTITLE1=Helt Perfekt (Det Bli'r Man Aldrig)
TTITLE2=Ch-Ch-Cherrie
TTITLE3=Gi' Et Tegn
TTITLE4=Det Du Tænker På
TTITLE5=Det Jeg Føler For Dig
TTITLE6=Hvor Ska' Vi Sove I Nat
TTITLE7=Came-camera
TTITLE8=Det Er Hans Kys
TTITLE9=Dit Navn, Dit Nummer
TTITLE10=Det' En Hem'lighed
TTITLE11=Hvad Er Det Der Er Galt Med Mig
TTITLE12=Sig Ingenting (Jeg Ved Det)
TTITLE13=Meget bedre nu
EXTD=ID3G: 13\n\nRecord number: EMI 1395731\n
EXTT0=
EXTT1=
EXTT2=
EXTT3=
EXTT4=
EXTT5=
EXTT6=
EXTT7=
EXTT8=
EXTT9=
EXTT10=
EXTT11=
EXTT12=
EXTT13=
PLAYORDER=