Last change 2020.03.01 14:20:52 / Time 2021.10.22 10:28:25

Music Database

My complete CD collection digitalized using differnent Linux tools in connection with remote CDDB databases.
These web pages give overview of content according to CDDB info.

cddb/b20f880d.txt

# xmcd CD database file generated by Grip 3.3.1
# 
# Track frame offsets:
#       150
#       12715
#       23856
#       52963
#       83110
#       108081
#       127753
#       146920
#       157939
#       191236
#       207827
#       229946
#       262216
# 
# Disc length: 3978 seconds
# 
# Revision: 14
# Submitted via: Grip 3.3.1
# 
DISCID=b20f880d
DTITLE=Led Zeppelin / Mothership [Disc 1]
DYEAR=2007
DGENRE=data
DID3=79
TTITLE0=Good Times Bad Times
TTITLE1=Communication Breakdown
TTITLE2=Dazed And Confused
TTITLE3=Babe I'm Gonna Leave You
TTITLE4=Whole Lotta Love
TTITLE5=Ramble On
TTITLE6=Heartbreaker
TTITLE7=Immigrant Song
TTITLE8=Since I've Been Loving You
TTITLE9=Rock And Roll
TTITLE10=Black Dog
TTITLE11=When The Levee Breaks
TTITLE12=Stairway To Heaven
EXTD=
EXTT0=
EXTT1=
EXTT2=
EXTT3=
EXTT4=
EXTT5=
EXTT6=
EXTT7=
EXTT8=
EXTT9=
EXTT10=
EXTT11=
EXTT12=
PLAYORDER=