Last change 2020.03.01 14:20:52 / Time 2021.10.18 10:03:05

Music Database

My complete CD collection digitalized using differnent Linux tools in connection with remote CDDB databases.
These web pages give overview of content according to CDDB info.

cddb/b20e1c0e.txt

# xmcd CD database file generated by Grip 3.3.1
# 
# Track frame offsets:
#       150
#       18260
#       33122
#       54845
#       73730
#       99590
#       122335
#       138578
#       155390
#       178145
#       192255
#       208130
#       236433
#       255805
# 
# Disc length: 3614 seconds
# 
# Revision: 2
# Submitted via: Grip 3.3.1
# 
DISCID=b20e1c0e
DTITLE=Various Artists / 80's dance hits - CD2
DYEAR=1997
DGENRE=misc
DID3=3
TTITLE0=Tony Esposito / Papa Chico
TTITLE1=Fun Fun / Happy Station
TTITLE2=Moses / We Just
TTITLE3=Starlight / Numero Uno
TTITLE4=David Christie / Saddle Up
TTITLE5=Bvsmp / I Need You
TTITLE6=Confetti's / The Sound Of C
TTITLE7=Debarge / Dance All Night
TTITLE8=Secchi / I Say Yeah
TTITLE9=Jesse Green / Nice & Slow
TTITLE10=Video / Somebody (Hey Girl)
TTITLE11=Doctor's Cat / Feel The Drive
TTITLE12=Francesco Napoli / Balla Balla
TTITLE13=Jolley & Swain / Soul Street
EXTD=rlokker@worldonline.nl
EXTT0=
EXTT1=
EXTT2=
EXTT3=
EXTT4=
EXTT5=
EXTT6=
EXTT7=
EXTT8=
EXTT9=
EXTT10=
EXTT11=
EXTT12=
EXTT13=
PLAYORDER=