Last change 2020.03.01 14:20:52 / Time 2020.09.19 16:02:33

Music Database

My complete CD collection digitalized using differnent Linux tools in connection with remote CDDB databases.
These web pages give overview of content according to CDDB info.

cddb/b10ef50e.txt

# xmcd CD database file generated by Grip 3.3.1
# 
# Track frame offsets:
#       150
#       24015
#       37718
#       53242
#       70470
#       88770
#       117900
#       143205
#       169555
#       185715
#       201205
#       232928
#       247863
#       271710
# 
# Disc length: 3831 seconds
# 
# Revision: 2
# Submitted via: Grip 3.3.1
# 
DISCID=b10ef50e
DTITLE=Various Artists / 80's dance hits - CD1
DYEAR=1997
DGENRE=rock
DID3=3
TTITLE0=Ryan Paris / Dolce Vita
TTITLE1=Michael Zager Band / Let's All Chant
TTITLE2=Santa Esmeralda / Don't Let Be Misunderstood
TTITLE3=Michaela / La Isla Bonita
TTITLE4=Kool & The Gang / My Search Is Over
TTITLE5=Clubhouse / Do It Again - Billie Jean
TTITLE6=Silver Pozzoli / Around My Dream
TTITLE7=FPI Project / Rich In Paradise
TTITLE8=The Videokids / Woodpeckers from Space
TTITLE9=FR David / Words
TTITLE10=BB & Q Band / On the Beat
TTITLE11=Sonia Davis / Bette Davis Eyes
TTITLE12=FPI Project / Everybody
TTITLE13=The Monotones / Mono
EXTD=
EXTT0=
EXTT1=
EXTT2=
EXTT3=
EXTT4=
EXTT5=
EXTT6=
EXTT7=
EXTT8=
EXTT9=
EXTT10=
EXTT11=
EXTT12=
EXTT13=
PLAYORDER=