Last change 2020.03.01 14:20:52 / Time 2021.10.18 11:23:01

Music Database

My complete CD collection digitalized using differnent Linux tools in connection with remote CDDB databases.
These web pages give overview of content according to CDDB info.

cddb/b10b590e.txt

# xmcd CD database file generated by Grip 3.0.7
# 
# Track frame offsets:
#       182
#       13285
#       29860
#       43825
#       61077
#       76382
#       91167
#       106305
#       118830
#       134577
#       152330
#       166042
#       187877
#       204192
# 
# Disc length: 2907 seconds
# 
# Revision: 8
# Submitted via: Grip 3.0.7
# 
DISCID=b10b590e
DTITLE=Bangles / Greatest Hits
DYEAR=1990
DGENRE=misc
DID3=87
TTITLE0=Hero Takes A Fall
TTITLE1=Going Down To Liverpool
TTITLE2=Manic Monday
TTITLE3=If She Knew What She Wants
TTITLE4=Walk Like An Egyptian
TTITLE5=Walking Down Your Street
TTITLE6=Following
TTITLE7=Hazy Shade Of Winter
TTITLE8=In Your Room
TTITLE9=Eternal Flame
TTITLE10=Be With You
TTITLE11=I'll Set You Free
TTITLE12=Everything I Wanted
TTITLE13=Where Were You When I Needed You
EXTD=YEAR: 1990 ID3G: 87
EXTT0=
EXTT1=
EXTT2=
EXTT3=
EXTT4=
EXTT5=
EXTT6=
EXTT7=
EXTT8=
EXTT9=
EXTT10=
EXTT11=
EXTT12=
EXTT13=
PLAYORDER=