Last change 2020.03.01 14:20:52 / Time 2021.10.22 10:48:33

Music Database

My complete CD collection digitalized using differnent Linux tools in connection with remote CDDB databases.
These web pages give overview of content according to CDDB info.

cddb/b10b340b.txt

# xmcd
#
# Track frame offsets:
#	150
#	29020
#	50202
#	74190
#	79510
#	96190
#	113187
#	137527
#	169997
#	179240
#	200875
#
# Disc length: 2870 seconds
#
# Revision: 5
# Processed by: cddbd v1.5.2PL0 Copyright (c) Steve Scherf et al.
# Submitted via: audiograbber 1.83.01
#
DISCID=b10b340b
DTITLE=Clive Lythgoe (Piano) / Romantic Mood
DYEAR=1987
DGENRE=Klassisk
TTITLE0=Debussy / Clair De Lune
TTITLE1=Granados / Spanish Dance
TTITLE2=Liszt / Consolation
TTITLE3=Chopin / Prelude A Op.27 Nr.7
TTITLE4=Beethoven / Für Elise
TTITLE5=Schumann / Träumerai
TTITLE6=Liszt / Liebestraum
TTITLE7=Grieg / Wedding Day
TTITLE8=Tschaikovsky / Sweet Dreams
TTITLE9=Sibelius / Romance
TTITLE10=Mompou / Jeunes Filles Au Jardin
EXTD= YEAR: 1987
EXTT0=
EXTT1=
EXTT2=
EXTT3=
EXTT4=
EXTT5=
EXTT6=
EXTT7=
EXTT8=
EXTT9=
EXTT10=
PLAYORDER=
.