Last change 2020.03.01 14:20:52 / Time 2020.09.25 03:55:11

Music Database

My complete CD collection digitalized using differnent Linux tools in connection with remote CDDB databases.
These web pages give overview of content according to CDDB info.

cddb/b00dc20c.txt

# xmcd
#
# Track frame offsets: 
#        150
#        23162
#        40350
#        51690
#        70200
#        91137
#        115925
#        138450
#        162630
#        181825
#        193000
#        236205
#
# Disc length: 3524 seconds
#
# Revision: 3
# Processed by: cddbd v1.5.2PL0 Copyright (c) Steve Scherf et al.
# Submitted via: ExactAudioCopy v0.95b2
#
DISCID=b00dc20c
DTITLE=A Flock Of Seagulls / The Best Of A Flock Of Seagulls
TTITLE0=I Ran
TTITLE1=Space Age Love Song
TTITLE2=Telecommunication
TTITLE3=The More You Live, The More You Love
TTITLE4=Nightmares
TTITLE5=Wishing (If I Had A Photograph Of You)
TTITLE6=(It's Not Me) Talking
TTITLE7=Transfer Affection
TTITLE8=Who's That Girl (She's Got It)
TTITLE9=D.N.A.
TTITLE10=Wishing (If I Had A Photograph Of You) (Extended Version)
TTITLE11=The More You Live, The More You Love (Instrumental)
EXTD=
EXTT0=
EXTT1=
EXTT2=
EXTT3=
EXTT4=
EXTT5=
EXTT6=
EXTT7=
EXTT8=
EXTT9=
EXTT10=
EXTT11=
PLAYORDER=