Last change 2020.03.01 14:20:52 / Time 2020.09.24 08:23:08

Music Database

My complete CD collection digitalized using differnent Linux tools in connection with remote CDDB databases.
These web pages give overview of content according to CDDB info.

cddb/b00d160e.txt

# xmcd CD database file generated by Grip 3.0.7
# 
# Track frame offsets:
#       150
#       22237
#       38230
#       52747
#       74330
#       91352
#       105175
#       126375
#       150537
#       165910
#       182335
#       200080
#       219622
#       234122
# 
# Disc length: 3352 seconds
# 
# Revision: 13
# Submitted via: Grip 3.0.7
# 
DISCID=b00d160e
DTITLE=ABBA / The Hits 3
DYEAR=1988
DGENRE=rock
DID3=13
TTITLE0=The Winner Takes It All
TTITLE1=The King Has Lost His Crown
TTITLE2=Dance (While The Music Still Goes On)
TTITLE3=Gimme Gimme Gimme
TTITLE4=Head Over Heels
TTITLE5=Rock Me
TTITLE6=I Have A Dream
TTITLE7=Chiquitita
TTITLE8=The Piper
TTITLE9=On And On And On
TTITLE10=One Of Us
TTITLE11=Our Last Summer
TTITLE12=Does Your Mother Know
TTITLE13=Thank You For The Music
EXTD=
EXTT0=
EXTT1=
EXTT2=
EXTT3=
EXTT4=
EXTT5=
EXTT6=
EXTT7=
EXTT8=
EXTT9=
EXTT10=
EXTT11=
EXTT12=
EXTT13=
PLAYORDER=