Last change 2020.03.01 14:20:52 / Time 2020.09.19 15:04:26

Music Database

My complete CD collection digitalized using differnent Linux tools in connection with remote CDDB databases.
These web pages give overview of content according to CDDB info.

cddb/ae113c0c.txt

# xmcd CD database file generated by Grip 3.0.7
# 
# Track frame offsets:
#       150
#       29700
#       61837
#       87065
#       133725
#       161695
#       183867
#       245537
#       256927
#       278719
#       298484
#       312944
# 
# Disc length: 4414 seconds
# 
# Revision: 0
# Submitted via: Grip 3.0.7
# 
DISCID=ae113c0c
DTITLE=Pink Floyd / Greatest Hits
DYEAR=2000
DGENRE=misc
DID3=12
TTITLE0=Money
TTITLE1=Time
TTITLE2=Wish you were here
TTITLE3=Sheep
TTITLE4=Keep Talking
TTITLE5=Learn to Fly
TTITLE6=Shine on your crazy Diamond
TTITLE7=Speak to me
TTITLE8=The Final cut
TTITLE9=What do you want from me
TTITLE10=Another brick in the Wall (Part 1)
TTITLE11=Another brick in the Wall (Part 2)
EXTD=
EXTT0=
EXTT1=
EXTT2=
EXTT3=
EXTT4=
EXTT5=
EXTT6=
EXTT7=
EXTT8=
EXTT9=
EXTT10=
EXTT11=
PLAYORDER=