Last change 2020.03.01 14:20:52 / Time 2020.09.25 03:33:56

Music Database

My complete CD collection digitalized using differnent Linux tools in connection with remote CDDB databases.
These web pages give overview of content according to CDDB info.

cddb/ad103f0b.txt

# xmcd CD database file generated by Grip 3.3.1
# 
# Track frame offsets:
#       150
#       25050
#       46735
#       66522
#       98027
#       123244
#       141578
#       179797
#       208018
#       254754
#       285593
# 
# Disc length: 4161 seconds
# 
# Revision: 12
# Submitted via: Grip 3.3.1
# 
DISCID=ad103f0b
DTITLE=Led Zeppelin / Mothership (Disc 2)
DYEAR=2007
DGENRE=data
DID3=17
TTITLE0=The Song Remains The Same
TTITLE1=Over The Hills And Far Away
TTITLE2=D'Yer Mak'er
TTITLE3=No Quarter
TTITLE4=Trampled Under Foot
TTITLE5=Houses Of The Holy
TTITLE6=Kashmir
TTITLE7=Nobody's Fault But Mine
TTITLE8=Achilles Last Stand
TTITLE9=In The Evening
TTITLE10=All My Love
EXTD=
EXTT0=
EXTT1=
EXTT2=
EXTT3=
EXTT4=
EXTT5=
EXTT6=
EXTT7=
EXTT8=
EXTT9=
EXTT10=
PLAYORDER=