Last change 2020.03.01 14:20:52 / Time 2021.10.22 09:19:24

Music Database

My complete CD collection digitalized using differnent Linux tools in connection with remote CDDB databases.
These web pages give overview of content according to CDDB info.

cddb/ad0c7c0c.txt

# xmcd CD database file generated by Grip 3.3.1
# 
# Track frame offsets:
#       150
#       17640
#       31430
#       49870
#       65322
#       84790
#       102437
#       125755
#       141577
#       163025
#       184772
#       202287
# 
# Disc length: 3198 seconds
# 
# Revision: 20
# Submitted via: Grip 3.3.1
# 
DISCID=ad0c7c0c
DTITLE=Pet Shop Boys / Very
DYEAR=1993
DGENRE=misc
DID3=18
TTITLE0=Can You Forgive Her?
TTITLE1=I Wouldn't Normally Do This Kind of Thing
TTITLE2=Liberation
TTITLE3=A Different Point of View
TTITLE4=Dreaming of the Queen
TTITLE5=Yesterday, When I Was Mad
TTITLE6=The Theatre
TTITLE7=One and One Make Five
TTITLE8=To Speak is a Sin
TTITLE9=Young Offender
TTITLE10=One in a Million
TTITLE11=Go West
EXTD=
EXTT0=
EXTT1=
EXTT2=
EXTT3=
EXTT4=
EXTT5=
EXTT6=
EXTT7=
EXTT8=
EXTT9=
EXTT10=
EXTT11=
PLAYORDER=