Last change 2020.03.01 14:20:52 / Time 2020.09.25 04:30:31

Music Database

My complete CD collection digitalized using differnent Linux tools in connection with remote CDDB databases.
These web pages give overview of content according to CDDB info.

cddb/ac0a3d0e.txt

#
# Track frame offsets:
#	150
#	11227
#	19893
#	31115
#	45326
#	60747
#	77613
#	94005
#	107331
#	124144
#	137868
#	150731
#	163390
#	178530
#
# Disc length: 2623 seconds
#
# Submitted via: cddb-tool 0.4.7
#
#blues,classical,country,data,folk,jazz,newage,reggae,rock,soundtrack,misc
#CATEGORY=misc
DISCID=ac0a3d0e
DTITLE=Red Squares / RED SQUARES LIVE VOL 2
DYEAR=2008
DGENRE=
TTITLE0=WALK LIKE A MANN
TTITLE1=BARBARA ANN
TTITLE2=STAY
TTITLE3=RAG DOLL
TTITLE4=LOLLIPOP
TTITLE5=SLOOP JOHN B
TTITLE6=MR LONELY
TTITLE7=PITY ME
TTITLE8=TRUE LOVE STORY
TTITLE9=ALL MY CRYING
TTITLE10=OH MAUREEN
TTITLE11=TURNING ROUND
TTITLE12=NEVER
TTITLE13=SILENCE IS GOLDEN
EXTD=
EXTT0=
EXTT1=
EXTT2=
EXTT3=
EXTT4=
EXTT5=
EXTT6=
EXTT7=
EXTT8=
EXTT9=
EXTT10=
EXTT11=
EXTT12=
EXTT13=
PLAYORDER=