Last change 2020.03.01 14:20:52 / Time 2020.09.19 16:14:17

Music Database

My complete CD collection digitalized using differnent Linux tools in connection with remote CDDB databases.
These web pages give overview of content according to CDDB info.

cddb/ab10750b.txt

# xmcd CD database file generated by Grip 3.3.1
# 
# Track frame offsets:
#       182
#       32145
#       61002
#       86745
#       113897
#       141560
#       159450
#       188007
#       220480
#       256430
#       284897
# 
# Disc length: 4215 seconds
# 
# Revision: 7
# Submitted via: Grip 3.3.1
# 
DISCID=ab10750b
DTITLE=Robert Miles / Dreamland
DYEAR=1996
DGENRE=data
DID3=12
TTITLE0=Children (Dream Version)
TTITLE1=Fable (Message Version)
TTITLE2=Fantasya
TTITLE3=Landscape
TTITLE4=In My Dreams
TTITLE5=One & One (Radio Version)
TTITLE6=Princess Of Light
TTITLE7=Fable (Dream Version)
TTITLE8=In The Dawn
TTITLE9=Children (Original Version)
TTITLE10=Red Zone
EXTD=
EXTT0=
EXTT1=
EXTT2=
EXTT3=
EXTT4=
EXTT5=
EXTT6=
EXTT7=
EXTT8=
EXTT9=
EXTT10=
PLAYORDER=