Last change 2020.03.01 14:20:52 / Time 2020.09.24 07:59:14

Music Database

My complete CD collection digitalized using differnent Linux tools in connection with remote CDDB databases.
These web pages give overview of content according to CDDB info.

cddb/ab0b020c.txt

# xmcd CD database file generated by Grip 3.3.1
# 
# Track frame offsets:
#       150
#       14225
#       28723
#       43723
#       63393
#       80818
#       95378
#       106955
#       122130
#       140553
#       161553
#       185650
# 
# Disc length: 2820 seconds
# 
# Revision: 1
# Submitted via: Grip 3.3.1
# 
DISCID=ab0b020c
DTITLE=Yazoo / Upstairs at Eric's
DYEAR=1982
DGENRE=misc
DID3=147
TTITLE0=Don't Go
TTITLE1=Too Pieces
TTITLE2=Bad Connection
TTITLE3=Midnight
TTITLE4=In My Room
TTITLE5=Only You
TTITLE6=Goodbye 70's
TTITLE7=Tuesday
TTITLE8=Winter Kills
TTITLE9=Bring Your Love Down (Didn't I)
TTITLE10=The Other Side of Love
TTITLE11=Situation
EXTD=
EXTT0=
EXTT1=
EXTT2=
EXTT3=
EXTT4=
EXTT5=
EXTT6=
EXTT7=
EXTT8=
EXTT9=
EXTT10=12"
EXTT11=U.S. 12" Remixed By Francois Kervorkian
PLAYORDER=