Last change 2020.03.01 14:20:52 / Time 2020.09.25 03:02:07

Music Database

My complete CD collection digitalized using differnent Linux tools in connection with remote CDDB databases.
These web pages give overview of content according to CDDB info.

cddb/aa0a740d.txt

# xmcd
#
# Track frame offsets:
#	150
#	13040
#	28717
#	42810
#	55080
#	70530
#	84415
#	102842
#	115067
#	130475
#	146717
#	160382
#	177392
#
# Disc length: 2678 seconds
#
# Revision: 2
# Processed by: cddbd v1.5.2PL0 Copyright (c) Steve Scherf et al.
# Submitted via: EasyCDDAExtractor 12.0.1.1
#
DISCID=aa0a740d
DTITLE=Svenne & Lotta / Oldies But Greatest
DYEAR=
DGENRE=Pop
TTITLE0=Breaking Up Is Hard To Do
TTITLE1=Little Yellow Aeroplane
TTITLE2=Chapel Of Love
TTITLE3=Sandy
TTITLE4=All I Have To Do Is Dream
TTITLE5=Bang A Boomerang
TTITLE6=Love Songs
TTITLE7=Extra Extra
TTITLE8=Dance
TTITLE9=Let It Be Me
TTITLE10=Save The Last Dance For Me
TTITLE11=The Two Of Us
TTITLE12=medley (sandy / extra extra (read all about it) / bang-a-boomerang / 
TTITLE12=breaking up is hard to do)
EXTD=
EXTT0=
EXTT1=
EXTT2=
EXTT3=
EXTT4=
EXTT5=
EXTT6=
EXTT7=
EXTT8=
EXTT9=
EXTT10=
EXTT11=
EXTT12=
PLAYORDER=
.