Last change 2020.03.01 14:20:52 / Time 2021.10.22 09:11:05

Music Database

My complete CD collection digitalized using differnent Linux tools in connection with remote CDDB databases.
These web pages give overview of content according to CDDB info.

cddb/a908b70c.txt

# xmcd CD database file generated by Grip 3.2.0
# 
# Track frame offsets:
#       150
#       15440
#       28591
#       40976
#       59312
#       67021
#       87645
#       100717
#       111673
#       125994
#       137836
#       151139
# 
# Disc length: 2233 seconds
# 
# Revision: 2
# Submitted via: Grip 3.2.0
# 
DISCID=a908b70c
DTITLE=Gasolin / Black Box - Gasolin 7 - Efter Endnu En Dag
DYEAR=1976
DGENRE=rock
DID3=17
TTITLE0=Pilli Villi
TTITLE1=Mamma CuCu
TTITLE2=Bella Donna
TTITLE3=Kloden Drejer Stille Rundt
TTITLE4=De Gule Enker
TTITLE5=Sirenesangen
TTITLE6=Twilight Birds
TTITLE7=Tantes Foto
TTITLE8=De Fem Årstider
TTITLE9=Pas På Svinget I Solrød
TTITLE10=Stenalderjazz
TTITLE11=This Is My Life
EXTD=
EXTT0=
EXTT1=
EXTT2=
EXTT3=
EXTT4=
EXTT5=
EXTT6=
EXTT7=
EXTT8=
EXTT9=
EXTT10=
EXTT11=
PLAYORDER=