Last change 2020.03.01 14:20:52 / Time 2021.10.22 10:05:24

Music Database

My complete CD collection digitalized using differnent Linux tools in connection with remote CDDB databases.
These web pages give overview of content according to CDDB info.

cddb/a80da70c.txt

# xmcd CD database file generated by Grip 3.3.1
# 
# Track frame offsets:
#       150
#       29867
#       47812
#       65745
#       91070
#       115925
#       132422
#       151112
#       180135
#       199867
#       220965
#       246787
# 
# Disc length: 3497 seconds
# 
# Revision: 6
# Submitted via: Grip 3.3.1
# 
DISCID=a80da70c
DTITLE=Edwyn Collins / Gorgeous George
DYEAR=1995
DGENRE=rock
DID3=17
TTITLE0=The Campaign For Real Rock
TTITLE1=A Girl Like You
TTITLE2=Low Expectations
TTITLE3=Out Of This World
TTITLE4=If You Could Love Me
TTITLE5=North Of Heaven
TTITLE6=Gorgeous George
TTITLE7=It's Right In Front Of You
TTITLE8=Make Me Feel Again
TTITLE9=I've Got It Bad
TTITLE10=Subsidence
TTITLE11=This Music Won't Take You Higher
EXTD=Eigner: Daniel\n
EXTT0=
EXTT1=
EXTT2=
EXTT3=
EXTT4=
EXTT5=
EXTT6=
EXTT7=
EXTT8=
EXTT9=
EXTT10=
EXTT11=
PLAYORDER=