Last change 2020.03.01 14:20:52 / Time 2020.09.25 02:52:13

Music Database

My complete CD collection digitalized using differnent Linux tools in connection with remote CDDB databases.
These web pages give overview of content according to CDDB info.

cddb/a70f900c.txt

# xmcd CD database file generated by Grip 3.0.7
# 
# Track frame offsets:
#       182
#       26165
#       44242
#       64782
#       80605
#       117412
#       144130
#       159922
#       178522
#       204812
#       258772
#       277220
# 
# Disc length: 3986 seconds
# 
# Revision: 1
# Submitted via: Grip 3.0.7
# 
DISCID=a70f900c
DTITLE=Dire Straits / Money for nothing
DYEAR=1988
DGENRE=misc
DID3=83
TTITLE0=Sultans of Swing
TTITLE1=Down to the waterline
TTITLE2=Portobello Belle - Live
TTITLE3=Twisting by the pool
TTITLE4=Tunnel of love
TTITLE5=Romeo and Juliet
TTITLE6=Where do you think you're going
TTITLE7=Walk of life
TTITLE8=Private investigations
TTITLE9=Telegraph road - Live
TTITLE10=Money for nothing
TTITLE11=Brothers in arms
EXTD=
EXTT0=
EXTT1=
EXTT2=
EXTT3=
EXTT4=
EXTT5=
EXTT6=
EXTT7=
EXTT8=
EXTT9=
EXTT10=
EXTT11=
PLAYORDER=