Last change 2020.03.01 14:20:52 / Time 2021.12.07 02:58:13

Music Database

My complete CD collection digitalized using differnent Linux tools in connection with remote CDDB databases.
These web pages give overview of content according to CDDB info.

cddb/a60f490b.txt

# xmcd CD database file generated by Grip 3.3.1
# 
# Track frame offsets:
#       183
#       40505
#       70288
#       90720
#       106213
#       148823
#       179825
#       194850
#       205208
#       227625
#       263823
# 
# Disc length: 3915 seconds
# 
# Revision: 8
# Submitted via: Grip 3.3.1
# 
DISCID=a60f490b
DTITLE=Kraftwerk / The Mix
DYEAR=1991
DGENRE=misc
DID3=12
TTITLE0=The Robots
TTITLE1=Computer Love
TTITLE2=Pocket Calculator
TTITLE3=Dentaku
TTITLE4=Autobahn
TTITLE5=Radioactivity
TTITLE6=Trans Europe Express
TTITLE7=Abzug
TTITLE8=Metal On Metal
TTITLE9=Homecomputer
TTITLE10=Music Non Stop
EXTD= YEAR: 1991
EXTT0=
EXTT1=
EXTT2=
EXTT3=
EXTT4=
EXTT5=
EXTT6=
EXTT7=
EXTT8=
EXTT9=
EXTT10=
PLAYORDER=