Last change 2020.03.01 14:20:52 / Time 2021.10.22 09:44:37

Music Database

My complete CD collection digitalized using differnent Linux tools in connection with remote CDDB databases.
These web pages give overview of content according to CDDB info.

cddb/a60a290c.txt

# xmcd CD database file generated by Grip 3.3.1
# 
# Track frame offsets:
#       183
#       14968
#       27315
#       41633
#       56875
#       77048
#       95843
#       108868
#       127880
#       144880
#       156708
#       173813
# 
# Disc length: 2603 seconds
# 
# Revision: 5
# Submitted via: Grip 3.3.1
# 
DISCID=a60a290c
DTITLE=Fleetwood Mac / Mirage
DYEAR=1982
DGENRE=rock
DID3=17
TTITLE0=Love In Store
TTITLE1=Can't Go Back
TTITLE2=That's Alright
TTITLE3=Book Of Love
TTITLE4=Gypsy
TTITLE5=Only Over You
TTITLE6=Empire State
TTITLE7=Straight Back
TTITLE8=Hold Me
TTITLE9=Oh Diane
TTITLE10=Eyes Of The World
TTITLE11=Wish You Were Here
EXTD=
EXTT0=
EXTT1=
EXTT2=
EXTT3=
EXTT4=
EXTT5=
EXTT6=
EXTT7=
EXTT8=
EXTT9=
EXTT10=
EXTT11=
PLAYORDER=