Last change 2020.03.01 14:20:52 / Time 2020.09.19 16:22:31

Music Database

My complete CD collection digitalized using differnent Linux tools in connection with remote CDDB databases.
These web pages give overview of content according to CDDB info.

cddb/a508c60b.txt

# xmcd CD database file generated by Grip 3.0.4
# 
# Track frame offsets:
#       150
#       22312
#       36495
#       49660
#       61480
#       78310
#       101795
#       116622
#       134810
#       147350
#       160192
# 
# Disc length: 2248 seconds
# 
# Revision: 8
# Submitted via: Grip 3.0.4
# 
DISCID=a508c60b
DTITLE=Simon & Garfunkel / Bridge Over Troubled Water
DYEAR=1970
DGENRE=rock
DID3=17
TTITLE0=Bridge Over Troubled Water
TTITLE1=El Condor Pasa (If I Could)
TTITLE2=Cecilia
TTITLE3=Keep The Customer Satisfied
TTITLE4=So Long, Frank Lloyd Wright
TTITLE5=The Boxer
TTITLE6=Baby Driver
TTITLE7=The Only Living Boy In New York
TTITLE8=Why Don't You Write Me
TTITLE9=Bye Bye Love
TTITLE10=Song For The Asking
EXTD=YEAR: 1970 ID3G:  80
EXTT0=
EXTT1=
EXTT2=
EXTT3=
EXTT4=
EXTT5=
EXTT6=
EXTT7=
EXTT8=
EXTT9=
EXTT10=
PLAYORDER=