Last change 2020.03.01 14:20:52 / Time 2021.10.22 08:53:39

Music Database

My complete CD collection digitalized using differnent Linux tools in connection with remote CDDB databases.
These web pages give overview of content according to CDDB info.

cddb/a20e590d.txt

# xmcd CD database file generated by Grip 3.0.7
# 
# Track frame offsets:
#       183
#       18543
#       36208
#       70345
#       88458
#       118150
#       132470
#       151633
#       167283
#       196583
#       225423
#       249130
#       259905
# 
# Disc length: 3675 seconds
# 
# Revision: 5
# Submitted via: Grip 3.0.7
# 
DISCID=a20e590d
DTITLE=Jean Michel Jarre / Musik Aus Zeit Und Raum
DYEAR=
DGENRE=misc
DID3=-1
TTITLE0=Oxygene IV
TTITLE1=Equinoxe Part V
TTITLE2=Oxygene II
TTITLE3=Magnetic Fields Part II
TTITLE4=Arpegiator
TTITLE5=Magnetic Fields Part I
TTITLE6=Orient Express
TTITLE7=Equinoxe Part IV
TTITLE8=Oxygene VI
TTITLE9=Magnetic Fields Part IV
TTITLE10=Equinoxe Part III
TTITLE11=Equinoxe Part 1
TTITLE12=Magnetic Fields Part V
EXTD=
EXTT0=
EXTT1=
EXTT2=
EXTT3=
EXTT4=
EXTT5=
EXTT6=
EXTT7=
EXTT8=
EXTT9=
EXTT10=
EXTT11=
EXTT12=
PLAYORDER=