Last change 2020.03.01 14:20:52 / Time 2020.09.24 07:53:04

Music Database

My complete CD collection digitalized using differnent Linux tools in connection with remote CDDB databases.
These web pages give overview of content according to CDDB info.

cddb/a209080c.txt

# xmcd CD database file generated by Grip 3.2.0
# 
# Track frame offsets:
#       150
#       20085
#       30647
#       46858
#       57973
#       71867
#       89601
#       99861
#       115375
#       132845
#       146398
#       160169
# 
# Disc length: 2314 seconds
# 
# Revision: 4
# Submitted via: Grip 3.2.0
# 
DISCID=a209080c
DTITLE=Gasolin / Black Box - Gasolin 8 - Gør det noget
DYEAR=1977
DGENRE=soundtrack
DID3=17
TTITLE0=Det bedste til mig og mine venner
TTITLE1=Smukke Møller
TTITLE2=Jumbo nummer nul
TTITLE3=December i New York
TTITLE4=Place Sct. Michelle
TTITLE5=Strengelegen
TTITLE6=Get on the train
TTITLE7=Kattemor
TTITLE8=Bob-shi-bam
TTITLE9=Længes hjem
TTITLE10=Gør det noget
TTITLE11=Kina Rock
EXTD=YEAR: 2003
EXTT0=
EXTT1=
EXTT2=
EXTT3=
EXTT4=
EXTT5=
EXTT6=
EXTT7=
EXTT8=
EXTT9=
EXTT10=
EXTT11=
PLAYORDER=