Last change 2020.03.01 14:20:52 / Time 2021.10.22 09:48:40

Music Database

My complete CD collection digitalized using differnent Linux tools in connection with remote CDDB databases.
These web pages give overview of content according to CDDB info.

cddb/a2089c0c.txt

# xmcd CD database file generated by Grip 3.3.1
# 
# Track frame offsets:
#       150
#       18660
#       30187
#       45335
#       57680
#       73742
#       78725
#       98877
#       112687
#       123800
#       134060
#       147837
# 
# Disc length: 2206 seconds
# 
# Revision: 9
# Submitted via: Grip 3.3.1
# 
DISCID=a2089c0c
DTITLE=John Lennon and Yoko Ono / Milk And Honey
DYEAR=
DGENRE=rock
DID3=-1
TTITLE0=I'm Stepping Out
TTITLE1=Sleepless Night
TTITLE2=I Don't Wanna Face It
TTITLE3=Don't Be Scared
TTITLE4=Nobody Told Me
TTITLE5=O' Sanity
TTITLE6=Borrowed Time
TTITLE7=Your Hands
TTITLE8=(Forgive Me) My Little Flower Princess
TTITLE9=Let Me Count The Ways
TTITLE10=Grow Old With Me
TTITLE11=You're The One
EXTD=1983 / 1984 Polygram 817160-2\n\n\n\n\n\n\n\n\n\n\n\n\nshs 10 Apr
EXTD=il 1995
EXTT0=
EXTT1=
EXTT2=
EXTT3=
EXTT4=
EXTT5=
EXTT6=
EXTT7=
EXTT8=
EXTT9=
EXTT10=
EXTT11=
PLAYORDER=