Last change 2020.03.01 14:20:52 / Time 2021.10.18 12:04:02

Music Database

My complete CD collection digitalized using differnent Linux tools in connection with remote CDDB databases.
These web pages give overview of content according to CDDB info.

cddb/a10bc80d.txt

# xmcd CD database file generated by Grip 3.3.1
# 
# Track frame offsets:
#       150
#       17040
#       32802
#       46722
#       63525
#       85692
#       103327
#       120830
#       137530
#       157792
#       173827
#       192645
#       210402
# 
# Disc length: 3018 seconds
# 
# Revision: 22
# Submitted via: Grip 3.3.1
# 
DISCID=a10bc80d
DTITLE=The Cars / The Cars Greatest Hits
DYEAR=1985
DGENRE=rock
DID3=17
TTITLE0=Just What I Needed
TTITLE1=Since You're Gone
TTITLE2=You Might Think
TTITLE3=Good Times Roll
TTITLE4=Touch And Go
TTITLE5=Drive
TTITLE6=Tonight She Comes
TTITLE7=My Best Friend's Girl
TTITLE8=Heartbeat City
TTITLE9=Let's Go
TTITLE10=I'm Not The One
TTITLE11=Magic
TTITLE12=Shake It Up
EXTD= YEAR: 1985 ID3G: 17
EXTT0=From the album "The Cars"
EXTT1=From the album "Shake it Up"
EXTT2=From the album "Heartbeat City"
EXTT3=From the album "The Cars"
EXTT4=From the album "Panorama"
EXTT5=From the album "Heartbeat City"
EXTT6=Previously Unavailable Track
EXTT7=From the album "The Cars"
EXTT8=From the album "Heartbeat City"
EXTT9=From the album "Candy-O"
EXTT10=From the album "Shake It Up"
EXTT11=From the album "Heartbeat City"
EXTT12=From the album "Shake It Up"
PLAYORDER=