Last change 2020.03.01 14:20:52 / Time 2021.12.01 15:17:31

Music Database

My complete CD collection digitalized using differnent Linux tools in connection with remote CDDB databases.
These web pages give overview of content according to CDDB info.

cddb/9d09950c.txt

# xmcd CD database file generated by Grip 3.3.1
# 
# Track frame offsets:
#       150
#       10887
#       29160
#       43405
#       59452
#       72220
#       90835
#       102427
#       125322
#       137560
#       145535
#       159177
# 
# Disc length: 2455 seconds
# 
# Revision: 4
# Submitted via: Grip 3.3.1
# 
DISCID=9d09950c
DTITLE=Sweethearts / Lyk'lig I En Verden Af Musik
DYEAR=1992
DGENRE=misc
DID3=87
TTITLE0=Sommer Og Sol
TTITLE1=Farende Musikanter
TTITLE2=Flower Power
TTITLE3=Lad Os Gøre Alting Sammen
TTITLE4=Arrivederci Franz
TTITLE5=Rør Ved Mig
TTITLE6=Gid Du Var I Skanderborg
TTITLE7=Mr. Sweetheart (Hvem Bliver Dit Næste Offer)
TTITLE8=Cowboy Sweetheart (Tænk Hvis Jeg Var En Cowboys Sweetheart)
TTITLE9=Hele Ugen Alene
TTITLE10=Smilende Susi
TTITLE11=Sol Står Op
EXTD=Record number EMI 0777 7 80949 2 0 YEAR: 1992
EXTT0=
EXTT1=
EXTT2=
EXTT3=
EXTT4=
EXTT5=
EXTT6=
EXTT7=
EXTT8=
EXTT9=
EXTT10=
EXTT11=
PLAYORDER=