Last change 2020.03.01 14:20:52 / Time 2020.09.24 09:36:27

Music Database

My complete CD collection digitalized using differnent Linux tools in connection with remote CDDB databases.
These web pages give overview of content according to CDDB info.

cddb/9b0e680c.txt

# xmcd CD database file generated by Grip 3.3.1
# 
# Track frame offsets:
#       182
#       18150
#       42317
#       61440
#       84620
#       101965
#       124727
#       145602
#       166502
#       189347
#       216920
#       243852
# 
# Disc length: 3690 seconds
# 
# Revision: 2
# Submitted via: Grip 3.3.1
# 
DISCID=9b0e680c
DTITLE=Captain Hollywood Project / Love Is Not Sex
DYEAR=1993
DGENRE=misc
DID3=13
TTITLE0=More And More (single version)
TTITLE1=All I Want
TTITLE2=It's Raining
TTITLE3=Impossible
TTITLE4=Only With You (video mix)
TTITLE5=Rhythm of Life
TTITLE6=Love 4 U Love 4 Me
TTITLE7=Rhythm Takes Control
TTITLE8=Nothing's Gonna Stop Me
TTITLE9=Only With You (magic remix)
TTITLE10=More And More (underground mix)
TTITLE11=Only With You (Faze 2 edit)
EXTD=YEAR: 1993 ID3G: 13
EXTT0=
EXTT1=
EXTT2=
EXTT3=
EXTT4=
EXTT5=
EXTT6=
EXTT7=
EXTT8=
EXTT9=
EXTT10=
EXTT11=
PLAYORDER=