Last change 2020.03.01 14:20:52 / Time 2021.10.18 09:56:31

Music Database

My complete CD collection digitalized using differnent Linux tools in connection with remote CDDB databases.
These web pages give overview of content according to CDDB info.

cddb/9b0a340c.txt

# xmcd CD database file generated by Grip 3.3.1
# 
# Track frame offsets:
#       150
#       17052
#       35050
#       54965
#       63635
#       81742
#       93982
#       105527
#       122815
#       132380
#       150002
#       168477
# 
# Disc length: 2614 seconds
# 
# Revision: 20
# Submitted via: Grip 3.3.1
# 
DISCID=9b0a340c
DTITLE=Enya / Shepherd Moons
DYEAR=1991
DGENRE=folk
DID3=10
TTITLE0=Shepherd Moons
TTITLE1=Caribbean Blue
TTITLE2=How Can I Keep From Singing?
TTITLE3=Ebudae
TTITLE4=Angeles
TTITLE5=No Holly For Miss Quinn
TTITLE6=Book Of Days
TTITLE7=Evacuee
TTITLE8=Lothlórien
TTITLE9=Marble Halls
TTITLE10=Afer Ventus
TTITLE11=Smaointe...
EXTD=YEAR: 1991
EXTT0=
EXTT1=
EXTT2=
EXTT3=
EXTT4=
EXTT5=
EXTT6=
EXTT7=
EXTT8=
EXTT9=
EXTT10=
EXTT11=
PLAYORDER=