Last change 2020.03.01 14:20:52 / Time 2020.09.25 04:17:36

Music Database

My complete CD collection digitalized using differnent Linux tools in connection with remote CDDB databases.
These web pages give overview of content according to CDDB info.

cddb/9b08b50c.txt

# xmcd CD database file generated by Grip 3.0.4
# 
# Track frame offsets:
#       182
#       17787
#       31880
#       42100
#       55272
#       70735
#       84217
#       99735
#       112317
#       129792
#       140715
#       153397
# 
# Disc length: 2231 seconds
# 
# Revision: 3
# Submitted via: Grip 3.0.4
# 
DISCID=9b08b50c
DTITLE=Various / Not Fade Away (Remebering Buddy Holly)
DYEAR=
DGENRE=rock
DID3=-1
TTITLE0=Buddy Holly & The Hollies / Peggy Sue Got Married
TTITLE1=Mavericks / True Love Ways
TTITLE2=Nanci Griffith with The Crickets / Well....All Right
TTITLE3=Los Lobos / Midnight Shift
TTITLE4=The Band & The Crickets / Not Fade Away
TTITLE5=The Tractors / Think It Over
TTITLE6=Mary Chapin Carpenter & Kevin Montgomery / Wishing
TTITLE7=Joe Ely & Todd Snider / Oh Boy!
TTITLE8=Marty Stuart & Steve Earle / Crying, Waiting, Hoping
TTITLE9=Suzy Bogguss with Dave Edmunds / It Doesn't Matter Anymore
TTITLE10=Nitty Gritty Dirt Band / Maybe Baby
TTITLE11=Waylon Jennings with Mark Knopfler / Learning The Game
EXTD=
EXTT0=
EXTT1=
EXTT2=
EXTT3=
EXTT4=
EXTT5=
EXTT6=
EXTT7=
EXTT8=
EXTT9=
EXTT10=
EXTT11=
PLAYORDER=