Last change 2020.03.01 14:20:52 / Time 2020.09.25 02:28:29

Music Database

My complete CD collection digitalized using differnent Linux tools in connection with remote CDDB databases.
These web pages give overview of content according to CDDB info.

cddb/9a0e5f0c.txt

# xmcd CD database file generated by Grip 3.3.1
# 
# Track frame offsets:
#       150
#       19910
#       40962
#       57460
#       79925
#       118677
#       141650
#       163095
#       183022
#       196542
#       228782
#       257287
# 
# Disc length: 3681 seconds
# 
# Revision: 9
# Submitted via: Grip 3.3.1
# 
DISCID=9a0e5f0c
DTITLE=Eric Clapton & B. B. King / Riding With The King
DYEAR=2000
DGENRE=misc
DID3=0
TTITLE0=Riding With The King
TTITLE1=Ten Long Years
TTITLE2=Key To The Highway
TTITLE3=Marry You
TTITLE4=Three O'Clock Blues
TTITLE5=Help The Poor
TTITLE6=I Wanna Be
TTITLE7=Worried Life Blues
TTITLE8=Days Of Old
TTITLE9=When My Heart Beats Like A Hammer
TTITLE10=Hold On I'm Coming
TTITLE11=Come Rain Or Come Shine
EXTD=
EXTT0=
EXTT1=
EXTT2=
EXTT3=
EXTT4=
EXTT5=
EXTT6=
EXTT7=
EXTT8=
EXTT9=
EXTT10=
EXTT11=
PLAYORDER=