Last change 2020.03.01 14:20:52 / Time 2020.09.24 09:30:46

Music Database

My complete CD collection digitalized using differnent Linux tools in connection with remote CDDB databases.
These web pages give overview of content according to CDDB info.

cddb/9a0a5a0c.txt

# xmcd CD database file generated by Grip 3.3.1
# 
# Track frame offsets:
#       183
#       18390
#       32500
#       49268
#       63493
#       78778
#       97325
#       114285
#       132248
#       148823
#       165518
#       181058
# 
# Disc length: 2652 seconds
# 
# Revision: 9
# Submitted via: Grip 3.3.1
# 
DISCID=9a0a5a0c
DTITLE=Tom Petty And The Heartbreakers / Into The Great Wide Open
DYEAR=1991
DGENRE=rock
DID3=17
TTITLE0=Learning To Fly
TTITLE1=Kings Highway
TTITLE2=Into The Great Wide Open
TTITLE3=Two Gunslingers
TTITLE4=The Dark Of The Sun
TTITLE5=All Or Nothin'
TTITLE6=All The Wrong Reasons
TTITLE7=Too Good To Be True
TTITLE8=Out In The Cold
TTITLE9=You And I Will Meet Again
TTITLE10=Makin' Some Noise
TTITLE11=Built To Last
EXTD=
EXTT0=
EXTT1=
EXTT2=
EXTT3=
EXTT4=
EXTT5=
EXTT6=
EXTT7=
EXTT8=
EXTT9=
EXTT10=
EXTT11=
PLAYORDER=