Last change 2020.03.01 14:20:52 / Time 2021.12.07 02:04:58

Music Database

My complete CD collection digitalized using differnent Linux tools in connection with remote CDDB databases.
These web pages give overview of content according to CDDB info.

cddb/9a0a000c.txt

# xmcd CD database file generated by Grip 3.3.1
# 
# Track frame offsets:
#       182
#       13875
#       29775
#       48095
#       63435
#       82707
#       103012
#       121482
#       137810
#       152325
#       155937
#       174465
# 
# Disc length: 2562 seconds
# 
# Revision: 0
# Submitted via: Grip 3.3.1
# 
DISCID=9a0a000c
DTITLE=Poul Krebs / Små Sensationer
DYEAR=1995
DGENRE=folk
DID3=12
TTITLE0=Nat i Oslo
TTITLE1=Morrison, Dylan og Elvis
TTITLE2=Sådan nogen, som os
TTITLE3=Vinden danser
TTITLE4=Prinsessen af Ålborg
TTITLE5=Små sensationer
TTITLE6=Hvis det ikke var for dig
TTITLE7=Til ære for dig
TTITLE8=Leidse Plein
TTITLE9=Morgen i Oslo (reprise)
TTITLE10=Den sidste tambouein
TTITLE11=Transistor
EXTD=
EXTT0=
EXTT1=
EXTT2=
EXTT3=
EXTT4=
EXTT5=
EXTT6=
EXTT7=
EXTT8=
EXTT9=
EXTT10=
EXTT11=
PLAYORDER=