Last change 2020.03.01 14:20:52 / Time 2021.10.22 08:44:21

Music Database

My complete CD collection digitalized using differnent Linux tools in connection with remote CDDB databases.
These web pages give overview of content according to CDDB info.

cddb/9a09910b.txt

# xmcd CD database file generated by Grip 3.3.1
# 
# Track frame offsets:
#       150
#       16400
#       31745
#       46592
#       64892
#       80137
#       96270
#       115992
#       132247
#       149180
#       167865
# 
# Disc length: 2451 seconds
# 
# Revision: 9
# Submitted via: Grip 3.3.1
# 
DISCID=9a09910b
DTITLE=Aqua / Aquarium
DYEAR=1997
DGENRE=misc
DID3=54
TTITLE0=Happy Boys & Girls
TTITLE1=My Oh My
TTITLE2=Barbie Girl
TTITLE3=Good Morning Sunshine
TTITLE4=Doctor Jones
TTITLE5=Heat Of The Night
TTITLE6=Be A Man
TTITLE7=Lollipop (Candyman)
TTITLE8=Roses Are Red
TTITLE9=Turn Back Time
TTITLE10=Calling You
EXTD=
EXTT0=
EXTT1=
EXTT2=
EXTT3=
EXTT4=
EXTT5=
EXTT6=
EXTT7=
EXTT8=
EXTT9=
EXTT10=
PLAYORDER=