Last change 2020.03.01 14:20:52 / Time 2021.12.01 16:26:32

Music Database

My complete CD collection digitalized using differnent Linux tools in connection with remote CDDB databases.
These web pages give overview of content according to CDDB info.

cddb/980f8c0a.txt

# xmcd CD database file generated by Grip 3.3.1
# 
# Track frame offsets:
#       150
#       44555
#       67470
#       88607
#       108155
#       132660
#       170925
#       211062
#       228650
#       279015
# 
# Disc length: 3982 seconds
# 
# Revision: 8
# Submitted via: Grip 3.3.1
# 
DISCID=980f8c0a
DTITLE=Meat Loaf / Bat Out Of Hell [Special Edition]
DYEAR=1977
DGENRE=rock
DID3=17
TTITLE0=Bat Out Of Hell
TTITLE1=You Took The Words Right Out Of My Mouth (Hot Summer Night)
TTITLE2=Heaven Can Wait
TTITLE3=All Revved Up With No Place To Go
TTITLE4=Two Out Of Three Ain't Bad
TTITLE5=Paradise By The Dashboard Light
TTITLE6=For Crying Out Loud
TTITLE7=Boléro (Live Intro)
TTITLE8=Bat Out Of Hell (Live)
TTITLE9=Dead Ringer For Love
EXTD=
EXTT0=
EXTT1=
EXTT2=
EXTT3=
EXTT4=
EXTT5=
EXTT6=
EXTT7=
EXTT8=
EXTT9=
PLAYORDER=