Last change 2020.03.01 14:20:52 / Time 2021.10.18 11:34:37

Music Database

My complete CD collection digitalized using differnent Linux tools in connection with remote CDDB databases.
These web pages give overview of content according to CDDB info.

cddb/980bb50d.txt

# xmcd CD database file generated by Grip 3.3.1
# 
# Track frame offsets:
#       183
#       15363
#       31345
#       46920
#       65983
#       90068
#       109168
#       126788
#       143290
#       162105
#       180183
#       188153
#       205873
# 
# Disc length: 2999 seconds
# 
# Revision: 18
# Submitted via: Grip 3.3.1
# 
DISCID=980bb50d
DTITLE=Ace Of Base / Happy Nation
DYEAR=1993
DGENRE=rock
DID3=13
TTITLE0=Voulez-Vous Danser
TTITLE1=All That She Wants
TTITLE2=M√ľnchhausen (Just Chaos)
TTITLE3=Happy Nation
TTITLE4=Waiting For Magic
TTITLE5=Fashion Party
TTITLE6=Wheel Of Fortune
TTITLE7=Dancer In A Daydream
TTITLE8=My Mind (Mindless Mix)
TTITLE9=Wheel Of Fortune (Original Club Mix)
TTITLE10=Dimension Of Depth
TTITLE11=Young And Proud
TTITLE12=All That She Wants (Banghra Version)
EXTD= YEAR: 1993
EXTT0=
EXTT1=
EXTT2=
EXTT3=
EXTT4=
EXTT5=
EXTT6=
EXTT7=
EXTT8=
EXTT9=
EXTT10=
EXTT11=
EXTT12=
PLAYORDER=