Last change 2020.03.01 14:20:52 / Time 2021.10.22 10:09:24

Music Database

My complete CD collection digitalized using differnent Linux tools in connection with remote CDDB databases.
These web pages give overview of content according to CDDB info.

cddb/980b1f0b.txt

# xmcd CD database file generated by Grip 3.3.1
# 
# Track frame offsets:
#       150
#       21297
#       38985
#       58160
#       78627
#       95745
#       118735
#       136775
#       158935
#       179417
#       196812
# 
# Disc length: 2849 seconds
# 
# Revision: 10
# Submitted via: Grip 3.3.1
# 
DISCID=980b1f0b
DTITLE=Simply Red / Love And The Russian Winter
DYEAR=1999
DGENRE=rock
DID3=13
TTITLE0=The Spirit Of Life
TTITLE1=Ain't That A Lot Of Love
TTITLE2=Your Eyes
TTITLE3=The Sky Is A Gypsy
TTITLE4=Back Into The Universe
TTITLE5=Words For Girlfriends
TTITLE6=Thank You
TTITLE7=Man Made The Gun
TTITLE8=Close To You
TTITLE9=More Than A Dream
TTITLE10=Wave The Old World Goodbye
EXTD= YEAR: 1999
EXTT0=
EXTT1=
EXTT2=
EXTT3=
EXTT4=
EXTT5=
EXTT6=
EXTT7=
EXTT8=
EXTT9=
EXTT10=
PLAYORDER=