Last change 2020.03.01 14:20:52 / Time 2021.10.18 10:47:33

Music Database

My complete CD collection digitalized using differnent Linux tools in connection with remote CDDB databases.
These web pages give overview of content according to CDDB info.

cddb/980a520d.txt

# xmcd CD database file generated by Grip 3.3.1
# 
# Track frame offsets:
#       150
#       16537
#       34550
#       49725
#       73950
#       91650
#       98962
#       114250
#       131487
#       146762
#       158337
#       171112
#       182462
# 
# Disc length: 2644 seconds
# 
# Revision: 1
# Submitted via: Grip 3.3.1
# 
DISCID=980a520d
DTITLE=Bifrost / Bifrost's Bedste
DYEAR=1981
DGENRE=folk
DID3=80
TTITLE0=Hej Maria
TTITLE1=Faldet
TTITLE2=Det er morgen
TTITLE3=Narredans
TTITLE4=Et 10 års ligegyldighed
TTITLE5=Lisom blade
TTITLE6=Vandringssangen
TTITLE7=Aftensang
TTITLE8=I nat vil jeg leve
TTITLE9=Idaho
TTITLE10=Jenny
TTITLE11=Frihedens dødsmesse
TTITLE12=Du er en Zigøjner
EXTD=
EXTT0=
EXTT1=
EXTT2=
EXTT3=
EXTT4=
EXTT5=
EXTT6=
EXTT7=
EXTT8=
EXTT9=
EXTT10=
EXTT11=
EXTT12=
PLAYORDER=