Last change 2020.03.01 14:20:52 / Time 2021.10.18 12:15:48

Music Database

My complete CD collection digitalized using differnent Linux tools in connection with remote CDDB databases.
These web pages give overview of content according to CDDB info.

cddb/9809640b.txt

# xmcd CD database file generated by Grip 3.0.4
# 
# Track frame offsets:
#       150
#       11127
#       29832
#       47845
#       66200
#       85835
#       94815
#       114785
#       131975
#       146530
#       162905
# 
# Disc length: 2406 seconds
# 
# Revision: 2
# Submitted via: Grip 3.0.4
# 
DISCID=9809640b
DTITLE=Enya / Watermark
DYEAR=
DGENRE=misc
DID3=-1
TTITLE0=Watermark
TTITLE1=Cursum Perficio
TTITLE2=On Your Shore
TTITLE3=Storms In Africa
TTITLE4=Exile
TTITLE5=Miss Clare Remembers
TTITLE6=Orinoco Flow
TTITLE7=Evening Falls ...
TTITLE8=River
TTITLE9=The Long Ships
TTITLE10=Na Laetha Geal M'oine
EXTD=
EXTT0=
EXTT1=
EXTT2=
EXTT3=
EXTT4=
EXTT5=
EXTT6=
EXTT7=
EXTT8=
EXTT9=
EXTT10=
PLAYORDER=