Last change 2020.03.01 14:20:52 / Time 2021.10.18 11:14:29

Music Database

My complete CD collection digitalized using differnent Linux tools in connection with remote CDDB databases.
These web pages give overview of content according to CDDB info.

cddb/960aaa0c.txt

# xmcd CD database file generated by Grip 3.0.7
# 
# Track frame offsets:
#       183
#       12780
#       28073
#       45488
#       63678
#       83395
#       102183
#       120340
#       135180
#       148498
#       162900
#       188933
# 
# Disc length: 2732 seconds
# 
# Revision: 22
# Submitted via: Grip 3.0.7
# 
DISCID=960aaa0c
DTITLE=ABBA / The Hits 1
DYEAR=1986
DGENRE=rock
DID3=13
TTITLE0=Waterloo
TTITLE1=S.O.S.
TTITLE2=Dancing Queen
TTITLE3=Knowing Me, Knowing You
TTITLE4=Lay All Your Love On Me
TTITLE5=Super Trouper
TTITLE6=Take A Chance On Me
TTITLE7=I Do, I Do, I Do, I Do, I Do
TTITLE8=Honey, Honey
TTITLE9=Hasta Manana
TTITLE10=The Visitors
TTITLE11=Mamma Mia
EXTD=
EXTT0=YEAR: 1974
EXTT1=YEAR: 1974
EXTT2=YEAR: 1976
EXTT3=YEAR: 1976
EXTT4=YEAR: 1980
EXTT5=YEAR: 1980
EXTT6=YEAR: 1977
EXTT7=YEAR: 1974
EXTT8=YEAR: 1974
EXTT9=YEAR: 1974
EXTT10=YEAR: 1981
EXTT11=YEAR: 1975
PLAYORDER=