Last change 2020.03.01 14:20:52 / Time 2021.10.22 08:59:26

Music Database

My complete CD collection digitalized using differnent Linux tools in connection with remote CDDB databases.
These web pages give overview of content according to CDDB info.

cddb/960a820b.txt

# xmcd CD database file generated by Grip 3.3.1
# 
# Track frame offsets:
#       150
#       21823
#       36768
#       54618
#       77160
#       97700
#       110948
#       122438
#       135513
#       149793
#       176755
# 
# Disc length: 2692 seconds
# 
# Revision: 2
# Submitted via: Grip 3.3.1
# 
DISCID=960a820b
DTITLE=Gasolin' / A foreign affair CD2
DYEAR=1977
DGENRE=rock
DID3=17
TTITLE0=Lucky Linda
TTITLE1=If You Dare
TTITLE2=Quasimodo's Song
TTITLE3=Lilli-Lilli
TTITLE4=I'm Only Asking
TTITLE5=It Was Inga , Katinka And Groovy Charlie On His Harly
TTITLE6=The Big Hullabaloo
TTITLE7=The Cat
TTITLE8=Stark Raving Mad
TTITLE9=Sju-Bi-Du-Bi-Man
TTITLE10=Don't Fall asleep On The Subway
EXTD=Record number: Columbia 487177-2\nRecorded in Sweet Silende 1977\n
EXTT0=
EXTT1=
EXTT2=
EXTT3=
EXTT4=
EXTT5=
EXTT6=
EXTT7=
EXTT8=
EXTT9=
EXTT10=
PLAYORDER=