Last change 2020.03.01 14:20:52 / Time 2021.12.01 15:57:00

Music Database

My complete CD collection digitalized using differnent Linux tools in connection with remote CDDB databases.
These web pages give overview of content according to CDDB info.

cddb/950c830c.txt

# xmcd CD database file generated by Grip 3.0.4
# 
# Track frame offsets:
#       150
#       19727
#       33785
#       55735
#       75900
#       99462
#       119842
#       142567
#       165585
#       184327
#       201102
#       220872
# 
# Disc length: 3205 seconds
# 
# Revision: 0
# Submitted via: Grip 3.0.4
# 
DISCID=950c830c
DTITLE=Crosby, Stills, Nash & Young / Looking Forward
DYEAR=1999
DGENRE=folk
DID3=81
TTITLE0=Faith In Me
TTITLE1=Looking Forward
TTITLE2=Stand And Be Counted
TTITLE3=Heartland
TTITLE4=Seen Enough
TTITLE5=Slowpoke
TTITLE6=Dream For Him
TTITLE7=No Tears Left
TTITLE8=Out Of Control
TTITLE9=Someday Soon
TTITLE10=Queen Of Them All
TTITLE11=Sanibel
EXTD=1999 Reprise Records\n0-9362-47436-2-0 YEAR: 1999 ID3G:  17
EXTT0=
EXTT1=
EXTT2=
EXTT3=
EXTT4=
EXTT5=
EXTT6=
EXTT7=
EXTT8=
EXTT9=
EXTT10=
EXTT11=
PLAYORDER=