Last change 2020.03.01 14:20:52 / Time 2021.12.01 15:12:38

Music Database

My complete CD collection digitalized using differnent Linux tools in connection with remote CDDB databases.
These web pages give overview of content according to CDDB info.

cddb/950c0d0c.txt

# xmcd CD database file generated by Grip 3.3.1
# 
# Track frame offsets:
#       150
#       13577
#       32145
#       51380
#       69127
#       89420
#       113457
#       136615
#       153875
#       173059
#       192875
#       209680
# 
# Disc length: 3087 seconds
# 
# Revision: 1
# Submitted via: Grip 3.3.1
# 
DISCID=950c0d0c
DTITLE=Bo Wilson Band / Magic Man
DYEAR=1996
DGENRE=misc
DID3=0
TTITLE0=Magic Man
TTITLE1=Chevrolet
TTITLE2=I'm Tore Down
TTITLE3=Trick Bag
TTITLE4=Boogie Man
TTITLE5=Stormy Monday
TTITLE6=Don't Take Advantage Of Me
TTITLE7=Statesboro Blues
TTITLE8=Share The Room
TTITLE9=If You Have To Know
TTITLE10=Hard Time In The Land Of Plenty
TTITLE11=Madhouse
EXTD=
EXTT0=
EXTT1=
EXTT2=
EXTT3=
EXTT4=
EXTT5=
EXTT6=
EXTT7=
EXTT8=
EXTT9=
EXTT10=
EXTT11=
PLAYORDER=