Last change 2020.03.01 14:20:52 / Time 2020.09.19 16:20:31

Music Database

My complete CD collection digitalized using differnent Linux tools in connection with remote CDDB databases.
These web pages give overview of content according to CDDB info.

cddb/950bab0c.txt

# xmcd CD database file
#
# Track frame offsets:
#150
#8053
#26165
#45270
#63435
#83723
#101935
#123598
#141228
#157548
#183188
#203853
#
# Disc length: 2989 seconds
#
# Revision: 5
# Processed by: cddbd v1.5.2PL0 Copyright (c) Steve Scherf et al.
# Submitted via: CdAid (MTCDDB.DLL V2003.01.23)
#
DISCID=950bab0c
DTITLE=Dr. Alban / One Love
TTITLE0=Introduction
TTITLE1=It's My Life
TTITLE2=One Love
TTITLE3=Sing Hallelujah!
TTITLE4=Mata Oh A Eh
TTITLE5=Reggae Gone Ragga
TTITLE6=Om We Rembwe Ike
TTITLE7=Hard To Choose
TTITLE8=Cash Money
TTITLE9=Roll Down Di Rubber Man
TTITLE10=It's My Life (Remix)
TTITLE11=One Love (Remix)
EXTD= YEAR: 1993 ID3G: 13
EXTT0=
EXTT1=
EXTT2=
EXTT3=
EXTT4=
EXTT5=
EXTT6=
EXTT7=
EXTT8=
EXTT9=
EXTT10=
EXTT11=
PLAYORDER=