Last change 2020.03.01 14:20:52 / Time 2020.09.24 08:08:24

Music Database

My complete CD collection digitalized using differnent Linux tools in connection with remote CDDB databases.
These web pages give overview of content according to CDDB info.

cddb/940cf809.txt

# xmcd CD database file generated by Grip 3.3.1
# 
# Track frame offsets:
#       182
#       34407
#       47160
#       71805
#       116760
#       143802
#       169327
#       201622
#       222065
# 
# Disc length: 3322 seconds
# 
# Revision: 1
# Submitted via: Grip 3.3.1
# 
DISCID=940cf809
DTITLE=J.S.Bach / Brandenburg Concertos 4-6
DYEAR=
DGENRE=classical
DID3=-1
TTITLE0=Brandenburg Concerto No 4 in G Major - 1 Allegro
TTITLE1=Brandenburg Concerto No 4 in G Major - 2 Andante
TTITLE2=Brandenburg Concerto No 4 in G Major - 3 Presto
TTITLE3=Brandenburg Concerto No 5 in D Major - 1 Allegro
TTITLE4=Brandenburg Concerto No 5 in D Major - 2 Affettuoso
TTITLE5=Brandenburg Concerto No 5 in D Major - 3 Allegro
TTITLE6=Brandenburg Concerto No 6 in B flat Major - 1 Allegro
TTITLE7=Brandenburg Concerto No 6 in B flat Major - 2 Adagio ma non tanto
TTITLE8=Brandenburg Concerto No 6 in B flat Major - 3 Allegro
EXTD=Hamburg Symphony Orchestra,\nConductor: Gabor Otuos,\nContinuo: C
EXTD=hristoph Heinichen
EXTT0=
EXTT1=
EXTT2=
EXTT3=
EXTT4=
EXTT5=
EXTT6=
EXTT7=
EXTT8=
PLAYORDER=