Last change 2020.03.01 14:20:52 / Time 2020.09.25 04:37:20

Music Database

My complete CD collection digitalized using differnent Linux tools in connection with remote CDDB databases.
These web pages give overview of content according to CDDB info.

cddb/940b870c.txt

# xmcd CD database file generated by Grip 3.3.1
# 
# Track frame offsets:
#       150
#       18450
#       35285
#       51170
#       66897
#       78735
#       93770
#       112897
#       132607
#       151592
#       169415
#       188602
# 
# Disc length: 2953 seconds
# 
# Revision: 5
# Submitted via: Grip 3.3.1
# 
DISCID=940b870c
DTITLE=Maggie Reilly / Echoes
DYEAR=1992
DGENRE=rock
DID3=17
TTITLE0=Everytime We Touch
TTITLE1=Tears In The Rain
TTITLE2=Echoes
TTITLE3=You'll Never Lose
TTITLE4=Gaia
TTITLE5=Real World
TTITLE6=I'm Sorry
TTITLE7=Wait
TTITLE8=What About Tomorrows Children
TTITLE9=Only A Fool
TTITLE10=I Know That I Need You
TTITLE11=Everytime We Touch [Long Version]
EXTD=YEAR: 1992 ID3G:  17
EXTT0=
EXTT1=
EXTT2=
EXTT3=
EXTT4=
EXTT5=
EXTT6=
EXTT7=
EXTT8=
EXTT9=
EXTT10=
EXTT11=
PLAYORDER=