Last change 2020.03.01 14:20:52 / Time 2020.09.25 03:48:46

Music Database

My complete CD collection digitalized using differnent Linux tools in connection with remote CDDB databases.
These web pages give overview of content according to CDDB info.

cddb/940abe0b.txt

# xmcd CD database file generated by Grip 3.3.1
# 
# Track frame offsets:
#       183
#       17480
#       35868
#       47208
#       74073
#       91490
#       113240
#       130278
#       147138
#       166520
#       181620
# 
# Disc length: 2752 seconds
# 
# Revision: 3
# Submitted via: Grip 3.3.1
# 
DISCID=940abe0b
DTITLE=The Blues Band / Back For More
DYEAR=1989
DGENRE=jazz
DID3=0
TTITLE0=Normal Service
TTITLE1=Victim Of Love
TTITLE2=Not Me
TTITLE3=Blue Collar
TTITLE4=Can't Get My Ass In Gear
TTITLE5=The Great Crash
TTITLE6=When I Itches I Scratch
TTITLE7=Don't Buy The Potion
TTITLE8=Bad Boy
TTITLE9=Down In The Bottom
TTITLE10=Leaving
EXTD=Ariola 260095, 1989
EXTT0=
EXTT1=
EXTT2=
EXTT3=
EXTT4=
EXTT5=
EXTT6=
EXTT7=
EXTT8=
EXTT9=
EXTT10=
PLAYORDER=