Last change 2020.03.01 14:20:52 / Time 2021.10.18 11:04:24

Music Database

My complete CD collection digitalized using differnent Linux tools in connection with remote CDDB databases.
These web pages give overview of content according to CDDB info.

cddb/9409670b.txt

# xmcd CD database file generated by Grip 3.0.4
# 
# Track frame offsets:
#       182
#       14960
#       29832
#       48915
#       62337
#       75110
#       91267
#       108792
#       126687
#       147895
#       164117
# 
# Disc length: 2409 seconds
# 
# Revision: 0
# Submitted via: Grip 3.0.4
# 
DISCID=9409670b
DTITLE=Alabama / American Pride
DYEAR=1992
DGENRE=country
DID3=2
TTITLE0=Take A Little Trip
TTITLE1=Hometown Honeymoon
TTITLE2=Once Upon A Lifetime
TTITLE3=You Can't Take The Country Out Of Me
TTITLE4=I'm In A Hurry
TTITLE5=Richard Petty Fans
TTITLE6=Homesick Fever
TTITLE7=Between The Two Of Them
TTITLE8=American Pride
TTITLE9=Sometimes Out Of Touch
TTITLE10=Pictures And Memories
EXTD=YEAR: 1992 ID3G:   2
EXTT0=
EXTT1=
EXTT2=
EXTT3=
EXTT4=
EXTT5=
EXTT6=
EXTT7=
EXTT8=
EXTT9=
EXTT10=
PLAYORDER=